Ralph Breaks the Internet (2018) 720p WEB DL x265 HEVC ENX265 torrent download

seeders: 778
leechers: 420
updated:
Added ago by ENX265 ***** in Movies
Torrent Downloaded 10 times.
Info Hash: E1083809FA74C8B33BB76779E43EEE8BC4AD77C1


Torrent Files

Ralph Breaks the Internet (2018) 720p WEB-DL x265 HEVC - ENX265 (Size: 739.9 MB)
  Ralph Breaks the Internet (2018) 720p WEB-DL x265 HEVC - ENX265 739.9 MB

Torrent Description





Please post your requests at

ENX265.Com

Soures : Ralph Breaks the Internet.2018.1080p.WEB-DL.H264.AC3-EVO - Thank

Sample
http://enx265.com/ralph-breaks-the-internet-2018-720p-10bit-web-dl/

Code:

General

Format : Matroska
Format version : Version 4
File size : 740 MiB
Duration : 1 h 53 min
Overall bit rate : 912 kb/s
Encoded date : UTC 2019-02-11 20:34:45
Writing application : mkvmerge v9.8.0 ('Kuglblids') 32bit
Writing library : libebml v1.3.4 + libmatroska v1.4.5 / Lavf58.20.100

Video
ID : 1
Format : HEVC
Format/Info : High Efficiency Video Coding
Format profile : Main [email protected]@Main
Codec ID : V_MPEGH/ISO/HEVC
Duration : 1 h 53 min
Bit rate : 751 kb/s
Width : 1 280 pixels
Height : 536 pixels
Display aspect ratio : 2.40:1
Frame rate mode : Constant
Frame rate : 23.976 (24000/1001) FPS
Color space : YUV
Chroma subsampling : 4:2:0
Bit depth : 10 bits
Bits/(Pixel*Frame) : 0.046
Stream size : 609 MiB (82%)
Writing library : x265 2.9:[Windows][GCC 7.1.0][64 bit] 10bit
Default : Yes
Forced : No
Color range : Limited
Color primaries : BT.709
Transfer characteristics : BT.709
Matrix coefficients : BT.709

Audio
ID : 2
Format : AAC LC
Format/Info : Advanced Audio Codec Low Complexity
Codec ID : A_AAC-2
Duration : 1 h 52 min
Bit rate : 161 kb/s
Channel(s) : 2 channels
Channel layout : L R
Sampling rate : 48.0 kHz
Frame rate : 46.875 FPS (1024 SPF)
Compression mode : Lossy
Delay relative to video : -21 ms
Stream size : 129 MiB (17%)
Title : Stereo
Language : English
Default : Yes
Forced : No

Menu
00:00:00.000 : :Opening
00:04:09.083 : :Plug-in Alert
00:11:00.036 : :Felix's New Family
00:17:29.008 : :I Give You the Internet
00:23:43.007 : :eBay
00:27:54.008 : :Get Rich Playing Video Games
00:34:19.060 : :Slaughter Race
00:41:40.042 : :Welcome to BuzzzTube
00:51:27.046 : :Ohmydisney.com
00:58:04.027 : :First Rule of The Internet
01:01:51.045 : :Decisions, Decisions
01:06:16.060 : :You're Always Welcome Here
01:12:31.060 : :Ready To Race?
01:19:08.082 : :What's Wrong With The Internet?
01:27:24.036 : :Catch Me If You Can
01:38:29.035 : :End Credits



Seed Back Guys



Related Torrents

torrent name size age seed leech
1.0 GB 4 minutes 298 207
12.9 GB 4 minutes 691 354
1.1 GB 4 minutes 797 111
456.8 MB 4 minutes 697 281
1.4 GB 4 minutes 55 240

Sharing Widget


Download torrent
739.9 MB
seeders:1214
leechers:386
Ralph Breaks the Internet (2018) 720p WEB-DL x265 HEVC - ENX265



To share this torrent use the code below and insert it into comments, status messages, forum posts or your signature.

Torrent: Ralph Breaks the Internet (2018) 720p WEB-DL x265 HEVC - ENX265

Comments

Latest Searches

5.5 Eps1 Slutever - Season 2 | 10 Grams .999 Fine Silver Bullion Bar / The Oath of Love / oz TSB093 - 1$13.99 17d left | Running Man Episode 326 5.5 Eps1 Slutever - Season 2 | 10 Grams .999 Fine Silver Bullion Bar / The Oath of Love / oz TSB093 - 1$13.99 17d left | Running Man Episode 326