Ralph Breaks the Internet 2018 720p WEB DL x265 HEVCBay torrent download

seeders: 488
leechers: 191
updated:
Added ago by g3m696 ***** in Movies
Torrent Downloaded 10 times.
Info Hash: F712F749A889C062666A39A1B1A8D8D9746BB29F


Torrent Files

Ralph Breaks the Internet 2018 720p WEB-DL x265 HEVCBay (Size: 450.7 MB)
  Ralph Breaks the Internet 2018 720p WEB-DL x265 HEVCBay 450.7 MB

Torrent Description



hevcbay.com

Code:

General
Unique ID : 95893924222467901246410171337007997145 (0x48247F7DE0969DDCCD15BF52ADA0A0D9)
Complete name : Ralph.Breaks.the.Internet.2018.720p.WEB-DL.x265.HEVCBay.com.mkv Format : Matroska
Format version : Version 4
File size : 451 MiB
Duration : 1 h 53 min
Overall bit rate : 555 kb/s
Movie name : Ralph.Breaks.the.Internet.2018.720p.WEB-DL.x265.HEVCBay.com.mkv
Encoded date : UTC 2019-02-12 00:58:30
Writing application : hevcbay
Writing library : hevcbay.com / Lavf58.22.100
Comment : Encoded by hevcbay.com
ENCODED-BY : hevcbay.com
Video
ID : 1 Format : HEVC
Format/Info : High Efficiency Video Coding
Format profile : [email protected]@Main
Codec ID : V_MPEGH/ISO/HEVC
Duration : 1 h 53 min
Bit rate : 504 kb/s
Width : 1 280 pixels
Height : 536 pixels
Display aspect ratio : 2.40:1 Frame rate mode : Constant
Frame rate : 23.976 FPS
Original frame rate : 24.000 FPS Color space : YUV
Chroma subsampling : 4:2:0
Bit depth : 8 bits
Bits/(Pixel*Frame) : 0.031
Stream size : 409 MiB (91%)
Writing library : Lavc58.40.100 libx265
Language : English
Default : Yes
Forced : No Color range : Limited

Audio
ID : 2
Format : AAC LC SBR PS
Format/Info : Advanced Audio Codec Low Complexity with Spectral Band Replication and Parametric Stereo Commercial name : HE-AACv2
Format settings : NBC
Codec ID : A_AAC-29
Duration : 1 h 52 min
Bit rate : 48.0 kb/s
Channel(s) : 2 channels
Channel layout : C
Sampling rate : 48.0 kHz
Frame rate : 23.438 FPS (2048 SPF)
Compression mode : Lossy
Delay relative to video : -148 ms
Stream size : 39.9 MiB (9%)
Writing library : Lavc58.40.100 libfdk_aac
Language : English
Default : Yes
Forced : No








Related Torrents

torrent name size age seed leech
855.7 MB 6 minutes 502 204
1.75 GB 8 minutes 688 78
1.29 GB 8 minutes 85 319
23.16 MB 8 minutes 14 182
7.88 MB 8 minutes 438 132

Sharing Widget


Download torrent
450.7 MB
seeders:1214
leechers:386
Ralph Breaks the Internet 2018 720p WEB-DL x265 HEVCBay



To share this torrent use the code below and insert it into comments, status messages, forum posts or your signature.

Torrent: Ralph Breaks the Internet 2018 720p WEB-DL x265 HEVCBay

Comments

Latest Searches

Uncensored1,628 | أفلام أجنبية أفلام رعب Web Dl فيلم The Doll 2 2017 مترجم | 24 Hours In A and E S15E04 XviD-AFG 26 minutes Uncensored1,628 | أفلام أجنبية أفلام رعب Web Dl فيلم The Doll 2 2017 مترجم | 24 Hours In A and E S15E04 XviD-AFG 26 minutes